[MagicStar] 秘密內幕 ~战斗吧! 派出所女子~ / ハコヅメ?たたかう!交番女子? EP01 [WEBDL] [1080p] [HULU]【生】【附日字】【V2】

简介:&苍产蝉辫;

HD 1080p from HULU JAPAN.
alt text
alt text

General Unique ID                      : 108202843918377919000386359865726047230 (0x51671C166A3F7E05951778F1317193FE) Complete name                  : Hakozume.Tatakau.Kouban.Joshi.EP01.1080p.HULU.WEB-DL.AAC2.0.H.264.V2-MagicStar.mkv Format                         : Matroska Format version                 : Version 4 File size                      : 1.74 GiB Duration                       : 51 min 34 s Overall bit rate               : 4 831 kb/s Encoded date                   : UTC 2021-07-22 12:26:39 Writing application            : mkvmerge v50.0.0 ('Awakenings') 64-bit Writing library                : libebml v1.4.0 + libmatroska v1.6.2 Cover                          : Yes Attachments                    : cover.png  Video ID                             : 1 Format                         : AVC Format/Info                    : Advanced Video Codec Format profile                 : High@L4 Format settings                : CABAC / 3 Ref Frames Format settings, CABAC         : Yes Format settings, Reference fra : 3 frames Format settings, GOP           : M=1, N=24 Codec ID                       : V_MPEG4/ISO/AVC Duration                       : 51 min 33 s Bit rate mode                  : Constant Bit rate                       : 4 731 kb/s Width                          : 1 920 pixels Height                         : 1 080 pixels Display aspect ratio           : 16:9 Frame rate mode                : Constant Frame rate                     : 29.970 (29970/1000) FPS Original frame rate            : 29.970 (30000/1001) FPS Color space                    : YUV Chroma subsampling             : 4:2:0 Bit depth                      : 8 bits Scan type                      : Progressive Bits/(Pixel*Frame)             : 0.076 Stream size                    : 1.69 GiB (97%) Default                        : Yes Forced                         : No Color range                    : Limited Color primaries                : BT.709 Transfer characteristics       : BT.709 Matrix coefficients            : BT.709  Audio ID                             : 2 Format                         : AAC LC Format/Info                    : Advanced Audio Codec Low Complexity Codec ID                       : A_AAC-2 Duration                       : 51 min 34 s Bit rate                       : 125 kb/s Channel(s)                     : 2 channels Channel layout                 : L R Sampling rate                  : 48.0 kHz Frame rate                     : 46.875 FPS (1024 SPF) Compression mode               : Lossy Stream size                    : 46.2 MiB (3%) Language                       : Japanese Default                        : Yes Forced                         : No

会员专用连接: [MagicStar] 秘密內幕 ~战斗吧! 派出所女子~ / ハコヅメ?たたかう!交番女子? EP01 [WEBDL] [1080p] [HULU]【生】【附日字】【V2】

惭补驳苍别迟连接: magnet:?xt=urn:btih:ZEBM4DE376Q5T7OQZZ5D2FIBPY2IMFAW

惭补驳苍别迟连接迟测辫别滨滨: magnet:?xt=urn:btih:c902ce0c9bffa1d9fdd0ce7a3d15017e34861416

PikPak载点: 發送到PikPak bot ?

弹幕播放连接: ddplay:magnet:?xt=urn:btih:ZEBM4DE376Q5T7OQZZ5D2FIBPY2IMFAW 播放器官方下载地址

外部搜索连接: 从谷歌搜索资源种子


  • mkv[MagicStar] Hakozume ~Tatakau! Kouban Joshi~ EP01 [WEBDL] [1080p] [HULU] [JPN_SUB] [V2]/Hakozume.Tatakau.Kouban.Joshi.EP01.1080p.HULU.WEB-DL.AAC2.0.H.264.V2-MagicStar.mkv 1.7GB
  • srt[MagicStar] Hakozume ~Tatakau! Kouban Joshi~ EP01 [WEBDL] [1080p] [HULU] [JPN_SUB] [V2]/Hakozume.Tatakau.Kouban.Joshi.EP01.1080p.HULU.WEB-DL.AAC2.0.H.264.V2-MagicStar.srt 67.2KB

***查看评论*** 請注意評論內容可能包含劇透

Processed in 0.001 second(s), 2 queries
Powered by tedmind.com Version: 1.8.1